<?xml version="1.0" standalone="no"?>
<!DOCTYPE svg PUBLIC "-//W3C//DTD SVG 1.1//EN" "http://www.w3.org/Graphics/SVG/1.1/DTD/svg11.dtd" >
<svg xmlns="http://www.w3.org/2000/svg">
<metadata>Generated by IcoMoon</metadata>
<defs>
<font id="iconfont-kongress" horiz-adv-x="1024">
<font-face units-per-em="1024" ascent="960" descent="-64" />
<missing-glyph horiz-adv-x="1024" />
<glyph unicode="&#x20;" horiz-adv-x="512" d="" />
<glyph unicode="&#xe900;" glyph-name="arrow-down" d="M514.664-51.588c13.312 0.521 28.698 6.001 38.402 15.127l316.524 297.891c18.14 20.186 25.628 58.893 4.655 81.455-20.657 22.223-60.719 21.562-81.458-0.577l-222.266-209.455v765.087c0 30.847-25.008 55.855-55.856 55.855s-55.856-25.008-55.856-55.855v-765.087l-222.266 209.455c-19.093 19.059-60.565 22.582-81.458 0.577-20.891-21.999-14.217-62.097 4.656-81.455l316.522-297.891c10.832-10.193 23.541-15.161 38.402-15.127z" />
<glyph unicode="&#xe901;" glyph-name="arrow-left" d="M11.875 451.005c0.521-13.312 6.001-28.698 15.127-38.402l297.891-316.524c20.186-18.14 58.893-25.628 81.455-4.655 22.223 20.657 21.562 60.719-0.577 81.458l-209.455 222.266h765.087c30.847 0 55.855 25.008 55.855 55.856s-25.008 55.856-55.855 55.856h-765.087l209.455 222.266c19.059 19.093 22.582 60.565 0.577 81.458-21.999 20.891-62.097 14.217-81.455-4.656l-297.891-316.522c-10.193-10.832-15.161-23.541-15.127-38.402z" />
<glyph unicode="&#xe902;" glyph-name="arrow-right" d="M1017.257 451.201c-0.521 13.312-6.001 28.698-15.127 38.402l-297.891 316.524c-20.186 18.14-58.893 25.628-81.455 4.655-22.223-20.657-21.562-60.719 0.577-81.458l209.455-222.266h-765.087c-30.847 0-55.855-25.008-55.855-55.856s25.008-55.856 55.855-55.856h765.087l-209.455-222.266c-19.059-19.093-22.582-60.565-0.577-81.458 21.999-20.891 62.097-14.217 81.455 4.656l297.891 316.522c10.193 10.832 15.161 23.541 15.127 38.402z" />
<glyph unicode="&#xe903;" glyph-name="arrow-up" d="M514.468 953.794c-13.312-0.521-28.698-6.001-38.402-15.127l-316.524-297.891c-18.14-20.186-25.628-58.893-4.655-81.455 20.657-22.223 60.719-21.562 81.458 0.577l222.266 209.455v-765.087c0-30.847 25.008-55.855 55.856-55.855s55.856 25.008 55.856 55.855v765.087l222.266-209.455c19.093-19.059 60.565-22.582 81.458-0.577 20.891 21.999 14.217 62.097-4.656 81.455l-316.522 297.891c-10.832 10.193-23.541 15.161-38.402 15.127z" />
<glyph unicode="&#xe904;" glyph-name="navigation" d="M68.267 857.6h887.467c37.703 0 68.267-30.564 68.267-68.267s-30.564-68.267-68.267-68.267h-887.467c-37.703 0-68.267 30.564-68.267 68.267s30.564 68.267 68.267 68.267zM68.267 516.267h887.467c37.703 0 68.267-30.564 68.267-68.267s-30.564-68.267-68.267-68.267h-887.467c-37.703 0-68.267 30.564-68.267 68.267s30.564 68.267 68.267 68.267zM68.267 174.933h887.467c37.703 0 68.267-30.564 68.267-68.267s-30.564-68.267-68.267-68.267h-887.467c-37.703 0-68.267 30.564-68.267 68.267s30.564 68.267 68.267 68.267z" />
<glyph unicode="&#xe905;" glyph-name="close" d="M1003.052 839.54c28.020 28.020 27.904 73.564-0.187 101.656l2.332-2.332c-28.123 28.123-73.769 28.075-101.656 0.187l-400.385-375.799-382.694 375.799c-28.020 28.020-73.564 27.904-101.656-0.187l2.332 2.332c-28.123-28.123-28.075-73.769-0.187-101.656l397.913-375.799-397.913-407.281c-28.020-28.020-27.904-73.565 0.187-101.656l-2.332 2.332c28.123-28.123 73.769-28.075 101.656-0.187l382.694 409.932 400.385-409.932c28.020-28.020 73.565-27.904 101.656 0.187l-2.332-2.332c28.123 28.123 28.075 73.769 0.187 101.656l-397.913 407.281 397.913 375.799z" />
<glyph unicode="&#xe906;" glyph-name="chevron-down" d="M486.091 140.8c21.272 0.78 45.858 8.974 61.365 22.623l396.705 445.506c28.987 30.189 40.952 88.077 7.438 121.818-33.009 33.235-97.027 32.246-130.167-0.863l-340.455-394.979-330.226 394.979c-30.51 28.504-96.78 33.772-130.167 0.863-33.384-32.901-22.718-92.869 7.441-121.818l396.702-445.506c17.309-15.245 37.617-22.673 61.365-22.623z" />
<glyph unicode="&#xe907;" glyph-name="world" d="M512 960c-282.772 0-512-229.231-512-512s229.228-512 512-512c282.769 0 512 229.231 512 512s-229.231 512-512 512zM458.956 12.31c-97.142 11.633-187.023 55.119-257.278 125.371-82.89 82.89-128.537 193.095-128.537 310.319 0 105.526 37.011 205.351 104.864 284.699 1.748-20.965 6.063-43.441 4.958-59.508-4.037-58.572-9.817-95.23 24.467-144.645 13.356-19.247 16.638-46.838 23.139-69.115 6.358-21.794 31.759-33.226 49.277-46.654 35.345-27.099 69.159-58.597 106.639-82.447 24.736-15.742 40.187-23.572 32.942-53.758-5.826-24.276-7.453-39.23-20.012-60.857-3.833-6.599 14.467-49.029 20.557-55.119 18.457-18.454 36.77-35.385 56.889-52 31.19-25.77-3.030-59.254-17.905-96.288zM822.319 137.681c-63.096-63.097-142.028-104.581-227.83-120.815 12.16 30.070 33.812 56.788 53.896 72.276 17.469 13.479 39.35 39.407 48.475 59.943 9.118 20.51 21.196 38.289 33.42 57.15 17.391 26.828-42.878 67.289-62.407 75.769-43.948 19.079-77.031 44.825-116.089 72.308-27.827 19.579-84.325-10.225-115.741 3.488-43.030 18.789-78.481 51.436-115.884 79.604-38.597 29.068-36.731 62.956-36.731 105.839 30.233-1.115 73.241 8.367 93.312-15.946 6.333-7.673 28.11-41.95 42.688-29.77 11.909 9.952-8.824 49.844-12.829 59.222-12.32 28.837 28.072 40.084 48.746 59.638 26.978 25.511 84.849 65.521 80.275 83.808s-57.905 70.097-89.228 62.014c-4.694-1.211-46.023-44.546-54.009-51.345 0.212 14.144 0.423 28.286 0.64 42.43 0.136 8.93-16.66 18.097-15.879 23.857 1.969 14.558 42.491 40.977 52.571 52.571-7.062 4.414-31.161 25.113-38.454 22.075-17.659-7.36-37.603-12.431-55.262-19.788 0 6.124-0.743 11.877-1.629 17.558 35.387 15.668 72.83 26.562 111.532 32.374l34.668-13.932 24.478-29.049 24.428-25.189 21.354-6.88 33.917 31.988-8.746 22.836v20.527c67.077-9.743 130.422-34.767 185.9-73.354-9.925-0.889-20.832-2.348-33.137-3.914-5.083 3.003-11.604 4.367-17.145 6.457 16.076-34.565 32.844-68.652 49.881-102.759 18.198-36.433 58.567-75.513 65.656-113.972 8.355-45.332 2.558-86.508 7.129-139.842 4.401-51.36 57.905-109.716 57.905-109.716s24.707-8.416 45.253-5.484c-19.153-75.774-58.42-145.265-115.124-201.974z" />
<glyph unicode="&#xe908;" glyph-name="calendar" d="M320.166 938.667c-17.25 0-31.233-13.984-31.233-31.233v-152.629c-36.217-12.997-62.467-47.729-62.467-88.17 0-51.379 42.321-93.7 93.7-93.7s93.7 42.321 93.7 93.7c0 40.44-26.25 75.172-62.467 88.17v152.629c0 17.25-13.984 31.233-31.233 31.233zM710.821 938.667c-17.25 0-31.233-13.984-31.233-31.233v-152.629c-36.217-12.997-62.467-47.729-62.467-88.17 0-51.379 42.321-93.7 93.7-93.7s93.7 42.321 93.7 93.7c0 40.44-26.25 75.172-62.467 88.17v152.629c0 17.25-13.984 31.233-31.233 31.233zM147.423 876.2c-95.872 0-147.423-84.345-147.423-147.423v-624.019c0-72.085 41.069-147.424 147.423-147.424h728.131c109.597 0 147.424 67.823 147.424 147.424v624.019c0 63.079-52.667 147.423-147.424 147.423h-62.141c-16.501 0.233-31.559-11.111-31.559-47.521s15.059-47.754 31.559-47.521h62.141c29.493 0 52.236-22.888 52.382-52.381v-176.664h-832.893v176.664c0 29.494 22.887 52.381 52.381 52.381h62.142c16.5-0.233 31.558 13.56 31.558 47.521s-15.059 47.755-31.558 47.521h-62.142zM428.346 876.2c-17.25 0-31.233-17.656-31.233-47.521s13.983-47.521 31.233-47.521h166.286c17.25 0 31.233 20.058 31.233 47.521s-13.983 47.521-31.233 47.521h-166.286zM317.713 697.868c17.62 0 31.233-13.614 31.233-31.233s-13.614-31.233-31.233-31.233c-17.62 0-31.233 13.614-31.233 31.233s13.614 31.233 31.233 31.233zM710.821 697.868c17.62 0 31.233-13.614 31.233-31.233s-13.614-31.233-31.233-31.233c-17.62 0-31.233 13.614-31.233 31.233s13.614 31.233 31.233 31.233zM95.042 489.644h832.893v-384.887c0-29.494-22.889-52.382-52.382-52.382h-728.131c-29.494 0-52.381 22.888-52.381 52.382v384.887z" />
<glyph unicode="&#xe909;" glyph-name="person" d="M341.503 42.382c19.16-7.525 32.513-25.121 34.603-45.6s-7.433-40.41-24.678-51.651c-17.245-11.241-39.324-11.909-54.632-3.077l-153.597 72.906c-19.311 8.937-31.734 28.212-31.895 49.858 0.383 213.284 173.291 386.036 386.575 386.228 213.355-0.191 386.263-172.943 386.645-386.595-0.16-21.278-12.583-40.554-31.547-49.328l-151.36-71.723c-17.893-10.178-39.972-9.51-57.217 1.731s-26.768 31.172-24.678 51.651c2.090 20.479 15.443 38.075 32.128 44.529l120.106 56.947c-18.584 135.488-134.692 238.757-274.043 238.757-139.356 0-255.469-103.278-274.045-238.774l117.633-55.859zM497.915 475.371c-133.973 0.172-242.455 108.654-242.627 242.627 0.172 133.745 108.673 242.059 242.418 242.002s242.153-108.465 242.21-242.21c0.057-133.745-108.257-242.246-242.002-242.418zM497.806 855.357c-36.478 0.054-71.481-14.399-97.295-40.174s-40.318-60.757-40.318-97.235c0-75.863 61.479-137.372 137.342-137.409s137.402 61.411 137.477 137.274c0.075 75.863-61.344 137.433-137.206 137.545z" />
<glyph unicode="&#xe90a;" glyph-name="tag" d="M839.111 402.214l165.151-219.684c5.16-6.835 6.254-15.891 2.871-23.762-3.36-7.86-10.685-13.305-19.183-14.285l-168.708-16.42-64.959-164.573c-3.269-7.917-10.526-13.453-19.024-14.524-1.002-0.137-2.005-0.205-3.007-0.205-7.427 0-14.513 3.474-19.046 9.5l-187.729 246.887c-0.296 0.387-0.478 0.809-0.718 1.185l-21.074 10.788-15.618-7.985c-0.672-1.378-1.447-2.723-2.404-3.987l-187.729-248.98c-4.545-6.026-11.619-9.5-19.046-9.5-0.98 0-2.005 0.068-3.007 0.205-8.475 1.059-15.731 6.607-19.024 14.501l-69.168 166.689-166.569 20.607c-8.464 0.98-15.777 6.379-19.16 14.194-3.383 7.826-2.335 16.859 2.734 23.694l168.458 219.422-50.167 32.442c-10.286 6.653-13.84 20.003-8.259 30.905l48.41 90.458-48.41 90.436c-5.582 10.901-1.993 24.252 8.281 30.905l85.321 53.109 5.137 101.588c0.592 12.211 10.389 21.997 22.623 22.6l97.333-3.304 50.993 83.296c6.653 10.309 20.026 13.863 30.905 8.281l88.365-46.363 90.481 46.363c10.901 5.605 24.252 2.016 30.927-8.281l55.157-85.389 93.169-7.162c12.234-0.592 22.019-10.389 22.623-22.6l0.951-86.935 85.321-55.202c10.286-6.653 13.863-20.003 8.281-30.905l-46.363-90.436 46.363-90.458c5.582-10.879 1.993-24.252-8.281-30.905l-43.204-36.208zM284.926 7.715l119.715 160.934c-6.379 1.094-12.303 4.602-16.062 10.412l-61.459 87.471-95.24 2.976c-12.234 0.592-22.019 10.366-22.623 22.6l-6.764 90.222-147.444-201.456 152.006-17.486c8.589-1.002 15.971-6.561 19.286-14.547l58.586-141.127zM503.674 257.31c3.714 0 7.461-0.889 10.856-2.62l82.188-42.080 50.076 77.529c4.181 6.447 11.186 10.503 18.841 10.879l92.224 4.602 4.648 92.201c0.376 7.655 4.431 14.661 10.856 18.818l77.495 50.122-42.091 82.143c-3.52 6.823-3.52 14.923 0 21.757l42.091 82.12-77.472 50.122c-6.447 4.158-10.503 11.163-10.879 18.818l-4.648 92.224-92.224 4.602c-7.655 0.399-14.661 4.454-18.841 10.879l-50.076 77.541-82.166-42.091c-6.823-3.52-14.923-3.52-21.757 0l-82.143 42.091-50.099-77.552c-4.158-6.425-11.163-10.48-18.841-10.879l-92.179-4.602-4.648-92.224c-0.376-7.655-4.431-14.661-10.879-18.818l-77.472-50.122 42.045-82.12c3.52-6.823 3.52-14.923 0-21.757l-42.045-82.143 77.495-50.122c6.425-4.158 10.48-11.163 10.856-18.818l4.648-92.201 92.179-4.602c7.678-0.376 14.683-4.431 18.841-10.879l50.099-77.529 82.143 42.091c3.406 1.731 7.142 2.62 10.879 2.62zM804.029 163.389l151.664 17.452-152.829 204.859-4.739-95.673c-0.592-12.234-10.389-21.997-22.623-22.6l-99.449-2.976-57.25-85.378c-3.121-4.83-7.746-8.099-12.884-9.728l120.261-161.629 58.54 141.104c3.315 8.008 10.696 13.567 19.308 14.57zM721.465 503.067c-15.686-58.153-53.084-106.748-105.347-136.764-34.664-19.935-73.11-30.13-112.068-30.13-19.707 0-39.551 2.597-59.11 7.894-58.164 15.686-106.748 53.084-136.787 105.324-30.039 52.218-37.956 113.013-22.247 171.155 15.686 58.187 53.084 106.771 105.324 136.81 52.241 30.016 113.025 37.933 171.2 22.224 12.713-3.417 20.254-16.529 16.802-29.253-3.417-12.713-16.529-20.231-29.23-16.802-45.861 12.371-93.808 6.14-134.987-17.531-41.18-23.694-70.683-61.992-83.054-107.864-12.371-45.861-6.14-93.785 17.531-134.964 23.694-41.18 62.014-70.683 107.864-83.054 45.907-12.394 93.83-6.163 134.987 17.531 41.18 23.671 70.683 61.992 83.054 107.842 16.085 59.713 0.513 122.388-41.692 167.669-8.988 9.637-8.452 24.742 1.185 33.707 9.637 8.988 24.742 8.475 33.707-1.185 53.516-57.401 73.292-136.901 52.867-212.608z" />
<glyph unicode="&#xe90b;" glyph-name="zoom" d="M0.521 917.791c-1.909 11.177 1.428 23.097 10.009 31.678 10.465 10.465 25.893 13.13 38.886 7.995l253.412-22.036c19.146-1.276 34.463-19.146 33.187-38.292s-19.146-34.463-38.292-33.187l-165.111 14.234 276.159-277.174c14.041-14.041 14.041-37.016 0-51.056-6.382-7.658-15.317-10.211-25.528-10.211-8.935 0-17.87 3.829-25.528 10.211l-277.366 278.386 14.426-167.338c1.276-19.146-12.764-37.016-33.187-38.292 0 0-1.276 0-2.553 0-17.87 0-34.463 14.041-35.74 33.187l-22.774 261.896zM890.546 16.101l-277.55 278.571c-14.041 14.041-14.041 37.016 0 51.056s37.016 14.041 51.056 0l277.246-278.265-14.305 165.941c-1.276 19.146 12.764 37.016 33.187 38.292 20.423 2.553 37.016-12.764 38.292-33.187l22.772-260.608c1.913-11.18-1.423-23.105-10.007-31.69-6.846-5.705-14.713-9.371-22.688-10.084-0.946-0.085-1.893-0.128-2.84-0.128-1.276 0-2.553 0-2.553 0l-264.217 22.975c-19.146 1.276-34.463 19.146-33.187 38.292s19.146 34.463 38.292 33.187l166.502-14.354zM10.53-53.789c-0.011 0.011-0.022 0.022-0.032 0.032-6.262 6.276-9.955 14.262-10.38 22.555-0.275 3.406-0.071 6.844 0.61 10.203l22.566 259.508c1.276 19.146 19.146 34.463 38.292 33.187s34.463-19.146 33.187-38.292l-14.33-166.222 278.546 278.546c14.041 14.041 37.016 14.041 51.056 0s14.041-37.016 0-51.056l-278.546-278.546 166.222 14.33c20.423 2.553 37.016-12.764 38.292-33.187 1.276-19.146-12.764-37.016-33.187-38.292l-264.217-22.975c0 0-1.276 0-2.553 0-8.935 0-19.146 3.829-25.528 10.211zM941.443 828.62l-278.667-278.667c-6.382-7.658-15.317-10.211-24.252-10.211s-17.87 3.829-25.528 10.211c-14.041 14.041-14.041 37.016 0 51.056l276.159 277.174-165.111-14.234c-19.146-2.553-37.016 12.764-38.292 33.187-1.276 19.146 12.764 37.016 33.187 38.292l259.309 23.801c3.422 0.714 6.929 0.931 10.402 0.651 8.307-0.425 16.306-4.131 22.587-10.412s9.987-14.28 10.412-22.587c0.275-3.406 0.071-6.844-0.61-10.203l-22.566-259.508c-1.276-20.423-17.87-34.463-35.739-34.463-1.276 0-2.553 0-2.553 0-19.146 1.276-34.463 19.146-33.187 38.292l14.45 167.619z" />
<glyph unicode="&#xe90c;" glyph-name="form-calendar" d="M926.642 572.4c0.011 95.786 0.017 165.699 0.017 165.699 0 0.024-49.534 0.055-124.4 0.073v-41.249c0-22.966-18.407-41.592-41.47-41.592-22.899 0-41.47 18.599-41.47 41.592v41.277c-126.652 0.022-288.049 0.048-414.67 0.058v-41.324c0-22.966-18.407-41.592-41.47-41.592-22.899 0-41.47 18.599-41.47 41.592v41.341c-74.749 0.005-124.198 0.008-124.198 0.008-0.046 0-0.076-69.991-0.111-165.87h829.21zM926.632 489.47h-829.23c-0.052-202.848-0.072-455.969-0.072-455.969 0-0.119 829.128-0.171 829.128-0.171 0.077 0 0.136 253.258 0.174 456.13zM802.27 821.2h124.198c45.914 0 83.143-37.138 83.143-83.101v-704.598c0-45.897-37.196-83.101-83.143-83.101h-828.926c-45.914 0-83.143 37.138-83.143 83.101v704.598c0 45.897 37.196 83.101 83.143 83.101h124.198v82.808c0 22.966 18.407 41.592 41.47 41.592 22.899 0 41.47-18.599 41.47-41.592v-82.808h414.67v82.808c0 22.966 18.407 41.592 41.47 41.592 22.899 0 41.47-18.599 41.47-41.592v-82.808z" />
<glyph unicode="&#xe90d;" glyph-name="form-chevron" d="M1033.513 632.053l-59.894 58.955-462.559-502.993-460.681 502.993-59.894-58.955 521.513-553.313z" />
<glyph unicode="&#xe90e;" glyph-name="form-number" d="M120.913 697.169h71.728v-478.185h-86.757v349.759l-105.884-101.785v112.715l120.913 117.497zM397.577 297.542h222.015v-78.559h-336.779v82.658l162.583 153.019c56.699 53.284 76.51 76.51 76.51 110.666s-25.959 60.115-63.53 60.115h-6.831c-40.987 0-71.728-28.691-73.094-77.876h-90.855c0 97.686 71.045 156.435 166.682 156.435s158.484-56.699 158.484-135.258c0-61.481-28.691-99.736-90.855-157.118l-124.328-114.081zM851.853 212.152c-100.419 0-169.414 52.6-169.414 138.674h90.855c3.416-34.839 29.374-60.115 75.143-60.115h6.831c54.65 0 77.193 34.156 77.193 64.897 0 40.987-34.839 62.847-84.707 62.847h-32.107v78.559h28.691c51.917 0 85.39 25.959 85.39 66.946 0 34.156-30.057 61.481-71.045 61.481h-6.831c-35.522 0-66.263-22.543-69.678-61.481h-90.855c0 81.975 70.362 140.040 163.949 140.040 102.468 0 165.316-61.481 165.316-133.209 0-54.65-33.473-97.003-84.024-110.666 50.551-13.662 87.44-56.699 87.44-111.349 0-88.806-73.094-136.624-172.147-136.624z" />
<glyph unicode="&#xe90f;" glyph-name="form-mail" d="M963.657 795.429h-903.314c-19.188 0-34.743-15.555-34.743-34.743v-625.371c0-19.188 15.555-34.743 34.743-34.743h903.314c19.188 0 34.743 15.555 34.743 34.743v625.371c0 19.188-15.555 34.743-34.743 34.743zM906.679 725.943l-394.679-303.583-394.679 303.583h789.358zM95.086 170.058v485.323l395.756-304.417c12.479-9.581 29.838-9.581 42.317 0l395.756 304.417v-485.323h-833.829z" />
<glyph unicode="&#xe910;" glyph-name="form-phone" d="M428.255 655.939l-100.163 174.758c-11.401 19.948-34.284 30.366-56.815 25.866l-85.141-16.882c-25.352-4.804-46.43-22.35-55.752-46.41-69.168-179.998-7.249-409.646 154.111-571.488l1.314-1.314c161.825-161.339 391.481-223.264 571.465-154.088 24.062 9.323 41.609 30.402 46.413 55.755l16.885 85.144c4.478 22.528-5.936 45.399-25.868 56.811l-174.765 100.169c-20.929 11.955-47.264 8.464-64.355-8.531l-15.959-15.933c-25.863-25.812-60.382-60.269-77.039-76.874-54.2 19.488-103.358 50.845-143.88 91.776-40.923 40.534-72.278 89.695-91.773 143.895 20.381 20.431 67.599 67.737 92.811 92.986 16.988 17.099 20.471 43.434 8.512 64.361zM376.066 635.72l-62.053-62.163c-47.764-47.861-55.956-56.963-51.773-69.501 20.502-64.681 70.982-142.524 119.22-190.243 47.658-48.173 122.681-100.442 187.265-120.956 12.78-4.26 22.119 5.078 61.028 43.901l70.89 70.754c2.479 2.457 6.294 2.956 9.322 1.22l154.004-81.278c2.906-1.654 4.423-4.985 3.764-8.262l-16.467-83.007c-1.828-9.719-8.47-17.843-17.631-21.565-159.419-61.275-364.343-4.916-509.908 140.212l-1.231 1.232c-145.147 145.58-201.507 350.503-140.236 509.93 3.723 9.16 11.846 15.801 21.564 17.627l73.005 16.464c3.272 0.646 6.592-0.865 8.255-3.757l92.193-151.269c1.74-3.031 1.244-6.851-1.211-9.338z" />
<glyph unicode="&#xe911;" glyph-name="form-upload" d="M909.506 373.304l63.294 0.959-2.877-363.461h-915.846l-2.877 363.461h62.335v-301.126h795.971v300.167zM253.549 523.868l-42.196 46.032 299.208 287.7 309.757-287.7-42.196-46.032-233.996 220.57v-558.139h-63.294v556.221l-227.283-218.652z" />
<glyph unicode="&#xe912;" glyph-name="facebook" d="M575.173-63.413v466.825h156.691l23.462 181.933h-180.153v116.153c0 52.674 14.626 88.567 90.155 88.567l96.336 0.042v162.723c-16.655 2.218-73.841 7.171-140.378 7.171-138.897 0-233.99-84.784-233.99-240.485v-134.17h-157.094v-181.933h157.094v-466.828h187.876z" />
<glyph unicode="&#xe913;" glyph-name="holidaycheck" d="M646.293 321.274c70.918 70.918 70.918 185.898 0 256.816s-185.898 70.918-256.816 0c-70.918-70.918-70.918-185.898 0-256.816s185.898-70.918 256.816 0zM224.528 403.199c16.971-0.836 33.023 7.742 41.76 22.316s8.736 32.774 0 47.348c-8.736 14.574-24.788 23.152-41.76 22.316h-172.399c-24.963-0.661-44.849-21.099-44.827-46.070s19.944-45.374 44.908-45.991l172.318 0.081zM973.612 403.199c16.971-0.836 33.023 7.742 41.76 22.316s8.736 32.774 0 47.348c-8.736 14.574-24.788 23.152-41.76 22.316h-172.399c-24.963-0.661-44.849-21.099-44.827-46.070s19.944-45.374 44.908-45.991l172.318 0.081zM464.861 735.472c-0.836-16.971 7.742-33.023 22.316-41.76s32.774-8.736 47.348 0c14.574 8.736 23.152 24.788 22.316 41.76v172.399c-0.661 24.963-21.099 44.849-46.070 44.827s-45.374-19.944-45.991-44.908l0.081-172.318zM464.861-13.612c-0.836-16.971 7.742-33.023 22.316-41.76s32.774-8.736 47.348 0c14.574 8.736 23.152 24.788 22.316 41.76v172.399c-0.661 24.963-21.099 44.849-46.070 44.827s-45.374-19.944-45.991-44.908l0.081-172.318zM684.345 678.277c-12.592-11.409-17.877-28.825-13.749-45.308s16.998-29.352 33.48-33.48c16.483-4.128 33.899 1.157 45.308 13.749l121.904 121.904c17.184 18.119 16.794 46.632-0.879 64.274s-46.187 17.981-64.275 0.766l-121.789-121.904zM162.256 156.188c-12.592-11.409-17.877-28.825-13.749-45.308s16.998-29.352 33.48-33.48c16.483-4.128 33.899 1.157 45.308 13.749l121.904 121.904c17.184 18.119 16.794 46.632-0.879 64.274s-46.187 17.981-64.275 0.766l-121.789-121.904zM281.723 613.294c11.409-12.592 28.825-17.877 45.308-13.749s29.352 16.998 33.48 33.48c4.128 16.483-1.157 33.899-13.749 45.308l-121.904 121.904c-18.119 17.184-46.632 16.794-64.274-0.879s-17.981-46.187-0.766-64.275l121.904-121.789zM803.812 91.205c11.409-12.592 28.825-17.877 45.308-13.749s29.352 16.998 33.48 33.48c4.128 16.483-1.157 33.899-13.749 45.308l-121.904 121.904c-18.119 17.184-46.632 16.794-64.274-0.879s-17.981-46.187-0.766-64.275l121.904-121.789z" />
<glyph unicode="&#xe914;" glyph-name="instagram" d="M511.193 958.387c-138.832 0-156.24-0.585-210.763-3.076-54.413-2.485-91.573-11.125-124.085-23.76-33.617-13.063-62.126-30.543-90.544-58.962s-45.899-56.929-58.96-90.544c-12.642-32.517-21.282-69.677-23.763-124.088-2.489-54.523-3.076-71.929-3.076-210.76 0-138.836 0.587-156.242 3.076-210.765 2.48-54.411 11.121-91.571 23.763-124.088 13.061-33.615 30.541-62.126 58.96-90.544s56.927-45.899 90.544-58.962c32.513-12.635 69.672-21.275 124.085-23.76 54.523-2.487 71.931-3.076 210.763-3.076s156.242 0.589 210.765 3.076c54.411 2.485 91.571 11.125 124.085 23.76 33.617 13.063 62.123 30.543 90.542 58.962s45.899 56.929 58.962 90.544c12.64 32.517 21.28 69.677 23.763 124.088 2.489 54.523 3.074 71.929 3.074 210.765 0 138.832-0.585 156.237-3.074 210.76-2.483 54.411-11.123 91.571-23.763 124.088-13.063 33.615-30.543 62.126-58.962 90.544s-56.925 45.899-90.542 58.962c-32.515 12.635-69.675 21.275-124.085 23.76-54.523 2.492-71.933 3.076-210.765 3.076zM511.193 866.28c136.494 0 152.659-0.52 206.566-2.978 49.84-2.274 76.908-10.605 94.921-17.603 23.863-9.274 40.893-20.352 58.778-38.24 17.892-17.89 28.97-34.917 38.24-58.778 6.998-18.013 15.329-45.083 17.603-94.921 2.458-53.907 2.98-70.071 2.98-206.566 0-136.499-0.522-152.663-2.98-206.566-2.274-49.842-10.605-76.912-17.603-94.925-9.27-23.859-20.348-40.888-38.24-58.778-17.885-17.888-34.915-28.966-58.778-38.238-18.013-7-45.081-15.331-94.921-17.601-53.898-2.463-70.060-2.98-206.566-2.98s-152.668 0.518-206.566 2.98c-49.838 2.27-76.908 10.601-94.921 17.601-23.861 9.272-40.891 20.35-58.778 38.238-17.885 17.89-28.963 34.919-38.238 58.778-7 18.013-15.329 45.083-17.605 94.925-2.456 53.902-2.978 70.067-2.978 206.566 0 136.494 0.522 152.659 2.978 206.566 2.277 49.838 10.605 76.908 17.605 94.921 9.274 23.861 20.352 40.888 38.238 58.778 17.888 17.888 34.917 28.966 58.778 38.24 18.013 6.998 45.083 15.329 94.921 17.603 53.907 2.458 70.071 2.978 206.566 2.978zM511.193 276.797c-94.107 0-170.399 76.289-170.399 170.399 0 94.107 76.291 170.396 170.399 170.396 94.109 0 170.399-76.289 170.399-170.396 0-94.109-76.289-170.399-170.399-170.399zM511.193 709.698c-144.976 0-262.503-117.529-262.503-262.503 0-144.98 117.527-262.505 262.503-262.505s262.503 117.525 262.503 262.505c0 144.973-117.527 262.503-262.503 262.503zM845.414 720.070c0-33.877-27.464-61.344-61.344-61.344-33.877 0-61.344 27.467-61.344 61.344 0 33.879 27.467 61.344 61.344 61.344 33.879 0 61.344-27.464 61.344-61.344z" />
<glyph unicode="&#xe915;" glyph-name="tripadvisor" d="M627.594 741.898c28.583-4.042 56.575-11.221 84.223-19.721 48.283-14.868 93.844-35.524 136.693-62.32 2.982-1.849 6.961-3.024 10.473-3.024 50.34-0.208 100.65-0.135 150.928-0.177 4.052 0 8.084-0.426 12.125-0.655 0-0.987 0.145-1.403-0.021-1.621-2.348-3.626-4.728-7.18-7.086-10.785-17.081-26.194-31.669-53.572-40.272-83.849-0.946-3.242-1.133-5.974 1.070-9.164 44.803-64.336 59.099-134.969 40.376-211.108-16.417-66.778-54.694-118.843-112.848-155.697-41.571-26.36-87.496-38.911-136.569-39.181-20.604-0.125-41.124 2.649-61.261 7.865-49.073 12.738-91.132 37.187-125.784 74.238-4.561 4.863-8.873 9.943-13.746 15.429-18.328-27.316-36.366-54.185-54.829-81.75-18.401 27.492-36.189 54.102-53.935 80.607-1.226-0.644-1.579-0.717-1.818-0.946-0.405-0.332-0.748-0.738-1.081-1.122-41.914-49.509-94.655-79.859-158.918-90.010-35.732-5.663-71.142-3.626-105.855 5.943-49.198 13.518-91.008 39.472-124.786 77.76-33.020 37.446-53.541 80.919-61.261 130.355-8.821 46.122 1.933 90.613 4.603 101.408 7.772 31.378 21.321 60.19 39.919 86.685 1.309 1.881 1.766 5.205 1.143 7.45-7.585 27.815-20.656 53.115-35.96 77.345-3.886 6.161-8.541 11.866-12.842 17.778 0 0.665 0 1.372 0 2.057 0.862-0.114 1.714-0.27 2.556-0.27 51.494-0.021 102.977-0.042 154.471 0.062 2.244 0 4.738 0.925 6.65 2.151 36.179 23.212 74.726 41.602 115.227 55.92 29.217 10.307 59.027 18.359 89.439 24.24 29.446 5.694 59.047 9.715 88.961 11.679 72.95 5.58 131.239-2.14 170.015-7.574zM563.039 401.816c0-113.076 91.745-205.445 204.417-205.009 113.097 0.405 204.427 90.187 204.344 204.51-0.083 117.814-95.652 206.38-208.729 204.095-111.632-2.338-199.014-92.317-200.032-203.596zM256.414 606.171c-109.991 0.956-205.892-90.841-203.97-207.773 1.787-109.035 91.662-201.487 206.266-200.5 112.048 0.966 202.11 92.452 202.318 203.253 0.166 113.835-90.997 205.019-204.614 205.019zM266.555 659.514c62.123-3.792 116.713-25.446 162.825-67.38 46.018-41.852 72.981-94.062 82.779-155.458 10.089 60.668 36.335 112.38 81.49 153.827 45.239 41.478 99.081 63.245 160.196 67.848-72.513 32.241-148.995 45.935-227.701 47.452-89.47 1.756-176.488-11.429-259.589-46.288zM767.040 530.821c69.978 0.125 126.656-56.263 126.656-126.168 0-70.175-55.712-124.433-121.441-126.927-73.407-2.816-132.142 55.66-132.122 126.615 0.062 71.755 59.214 127.664 126.906 126.48zM849.58 404.341c-0.031 45.623-36.916 82.685-82.207 82.685-45.821 0-83.122-36.875-83.319-82.353-0.166-45.28 37.332-82.955 82.716-83.080 45.478-0.177 82.831 37.218 82.81 82.748zM253.713 530.821c69.936 0.073 126.698-56.408 126.532-126.293-0.208-70.757-55.972-123.81-120.547-126.75-73.698-3.377-133.161 55.369-133.026 126.698 0.145 72.264 59.702 127.55 127.041 126.345zM336.159 404.622c-0.145 45.893-37.249 82.477-83.579 82.394-44.699-0.083-82.134-37.8-82.041-82.654 0.114-45.374 37.519-82.685 83.038-82.81 45.249-0.104 82.696 37.571 82.581 83.070zM767.103 446.328c23.191 0.021 42.205-19.004 41.987-42.060-0.218-23.108-18.921-41.831-41.727-41.841-23.492 0-42.361 18.557-42.309 41.55 0.042 23.856 18.38 42.33 42.049 42.35zM253.495 446.702c23.544 0.021 42.465-18.785 42.558-42.257 0.094-23.264-19.004-42.371-42.434-42.434-23.991-0.052-42.496 18.484-42.475 42.61 0 23.669 18.463 42.049 42.35 42.080z" />
<glyph unicode="&#xe916;" glyph-name="twitter" d="M1008.074 760.638c-37.075-16.449-76.936-27.565-118.763-32.578 42.694 25.607 75.47 66.133 90.908 114.411-39.953-23.706-84.197-40.907-131.326-50.172-37.708 40.186-91.465 65.301-150.944 65.301-114.224 0-206.8-92.587-206.8-206.8 0-16.216 1.809-32.001 5.356-47.13-171.886 8.612-324.273 90.973-426.274 216.077-17.801-30.532-28.001-66.049-28.001-103.956 0-71.76 36.494-135.045 92.003-172.15-33.895 1.057-65.789 10.368-93.679 25.867-0.027-0.87-0.027-1.729-0.027-2.592 0-100.215 71.29-183.785 165.893-202.796-17.339-4.722-35.609-7.23-54.467-7.23-13.342 0-26.275 1.26-38.922 3.691 26.336-82.158 102.692-141.958 193.21-143.634-70.84-55.475-159.995-88.518-256.896-88.518-16.682 0-33.154 0.985-49.344 2.882 91.557-58.681 200.253-92.912 317.055-92.912 380.385 0 588.373 315.127 588.373 588.43 0 8.963-0.199 17.865-0.584 26.729 40.388 29.18 75.451 65.594 103.192 107.074z" />
<glyph unicode="&#xe917;" glyph-name="youtube" d="M508.637 804.174c0 0-318.137 0-397.985-20.748-42.753-11.946-77.958-47.15-89.903-90.533-20.748-79.848-20.748-245.207-20.748-245.207s0-165.987 20.748-244.578c11.946-43.382 46.521-77.958 89.903-89.904 80.477-21.377 397.985-21.377 397.985-21.377s318.768 0 398.614 20.748c43.383 11.946 77.957 45.893 89.274 89.904 21.377 79.22 21.378 244.578 21.378 244.578s0.628 165.988-21.378 245.836c-11.317 43.382-45.892 77.957-89.274 89.274-79.847 22.006-398.614 22.007-398.614 22.007zM407.411 600.463l264.698-152.778-264.698-152.149v304.927z" />
<glyph unicode="&#xe918;" glyph-name="whatsapp" d="M1024 461.173c0-275.475-225.055-498.794-502.734-498.794-88.119 0-170.895 22.539-242.952 62.007l-278.313-88.386 90.723 267.695c-45.746 75.13-72.091 163.348-72.091 257.511 0.033 275.475 225.022 498.794 502.701 498.794 277.646-0.067 502.667-223.352 502.667-498.827zM525.441 879.158c-230.309 0-417.651-187.389-417.651-417.751 0-91.4 29.568-176.014 79.564-244.863l-52.14-155.093 160.447 51.387c66.001-43.638 144.97-69.049 229.781-69.049 230.309 0 417.717 187.356 417.717 417.717 0.066 230.262-187.375 417.651-417.717 417.651zM806.471 351.771c-3.378 4.988-12.217 8.028-25.44 14.107-13.187 6.079-78.475 35.316-90.584 39.28-12.217 4.063-21.056 6.112-29.895-6.013-8.731-12.124-34.171-39.346-41.968-47.473-7.725-8.094-15.451-9.118-28.709-3.138-13.259 6.145-56.017 18.831-106.681 60.027-39.417 32.111-66.042 71.656-73.732 83.78-7.797 12.091-0.791 18.633 5.785 24.645 5.929 5.451 13.259 14.14 19.906 21.242 6.647 7.037 8.839 12.025 13.259 20.119 4.348 8.094 2.156 15.131-1.114 21.242-3.306 6.079-29.787 65.544-40.89 89.76-11.031 24.183-22.062 20.185-29.823 20.185-7.725 0-16.564 0.991-25.404 0.991s-23.212-2.94-35.321-15.065c-12.109-12.124-46.388-41.362-46.388-100.893 0-59.598 47.466-117.048 54.113-125.109 6.683-8.028 91.769-134.194 226.549-182.625 134.851-48.398 134.851-32.244 159.141-30.195 24.362 2.048 78.475 29.237 89.47 57.45 11.067 28.345 11.067 52.627 7.725 57.682z" />
</font>
</defs>
</svg>
